amiga cd32 emulation

no longer ISO ... take the CUE-name). Here, we take a look at the system itself, the best Amiga CD32 games, CD32 emulators and where to find the Amiga CD32 for sale. There are Amiga games from a variety of different genres and categories, so the entertainment is guaranteed. ), @Ratte Hi, The Amiga CD32, styled "CD32" and code-named "Spellbound", is the first 32-bit CD-ROM based home video game console released in western Europe, Australia, Canada and Brazil. The Amiga CD 32 started very well and 100,000+ units of it were sold in Europe alone. PGA European Tour To download Amiga kickstart ROMS then you’ll just have to Google / bing it. Change the AmigaCD32 "iso" Extension section against. Using [title removed] as an example, the cue file starts off with: FILE "[title removed](Track 01 of 10)[! @Ratte Hi yeah that makes sense. 1.2. Ratte. May be zipped or 7-zipped. if [ ! Enter the RunCommand menu for your Amiga emulator, and select a valid mode that uses a 50Hz refresh rate in order to match the … The CDTV is a 16 bit multimedia unit which was also manufactured by Commodore. Disk swapper path modifications did nothing while emulation was running. Why create this site?, As mentioned above I have always had love for the amiga system and was inspired by the work being done over at archive.org to preserve and make available classic games, software, music, movies and more.. James Pond 3 - Operation Starfi5h Download Version Download 589 File Size 5.95 MB File Count 1 Create Date November 15, 2020 Last Updated December 1, 2020 Amiga Kickstart ROMs Commodore A500 A600 A1000 A3000 A4000 A1200 A2000 Amiga Kickstart ROMs Commodore A500 A600 A1000 A3000 A4000 A1200 A2000 Amiga Kickstart ROMS. NoScript). Fixed possible crash when PPC emulation stopped emulated sound card audio. The emulator is currently in development but it can already run over 80 percent of the CD32 games (with CD audio and Joypad emulation!) (+) added rpi1 & rpi2 to the existing rpi3 binary, http://www84.zippyshare.com/v/paDNAZCI/file.html. Battletoads Actual testresults: TRACK 01 MODE1/2048 Naughty Ones YOUTUBE - HOW TO: Star Crusader amigacd32/CDS/games_xxx.lst This topic has been deleted. In future this list will be obsolete, a better idea is a CUE-file integration of videomodes. Released in 1993, the Amiga CD32 was to be Commodore’s final system. Akiko is a CD32 and CDTV emulator for Windows®. Others with gfx-glitches or no responce ... Also, do I not need to edit line 5 of es_systems.cfg to include a reference to .cue? Strip Pot Pity every iso of Super Putty does not appear to work. if [ "$romType" == "cue" ]; then For Amiga OS 1.2 to 3.x, Amiga Forever may be able to detect runtime changes automatically. And, all 3 still seem to work perfectly, so I will be re encoding all WAV files and hope to save about 10gig of valuable space. WinUAE is the best Amiga emulator we have seen so far, for playing Amiga games on a Windows PC. However I had the same problem with multifile games. Starting with release 4.1 update 4 there is an Emulation drawer containing official AmigaOS 3.x ROMs (all classic Amiga models including CD32) and relative Workbench files. Change the AmigaCD32 "iso" Extension section against: /usr/bin/uae4arm/scripts/start.sh Global Effect Your browser does not seem to support JavaScript. Of the ones that worked, I choose 3 at random with lots of large audio WAV files, and re encoded the audio tracks to 192k mp3 files, and made the necessary changes in the cue file (a global replace saves time!) @RustyMG Restoring CD32 or CDTV statefile with CD audio playing: start playing immediately, do not include normal CD audio start delays. Chaos Engine, The Getting ROMs for Amiga emulation. It was based on Commodore’s Advanced Graphics Architecture chipset, and is of similar specification to the Amiga 1200 computer but with additional Akiko chip. Amiga systems/games are PAL (50Hz), but modern TVs typically default to a 60Hz mode when connected to a Raspberry Pi. I now have about 40 game "rips" with .wav files to try. WHD(folders, *.lha/lzh/lzx, *.zip), the well known format for hard-drive games.WHD folders are reconized using the inner *.slave file, however it is highlyrecommended to keep them packed in lha or zip format.Unpacked WHD … Accurate Amiga Emulation. (Not included CDTV games like Defender of the Crown I&II or WHDLoad Compilation CDs with tons of A500/1200 games), Akira UFO - Enemy Unknown Emerald Mines AmigaCD32Games-20170702.torrent - File Contents - Amiga CD32 Games Cover CDs: 2.34gb. I can confirm the instructions are perfect and that its adds CD32 functionality to Recalbox within minutes. Under Quickstart select the Amiga you’d like to emulate Under ROM select the ROM file for the Amiga model you’ve selected. Any help / suggestions would be most appreciated! This will stretch NTSC to screenfilling games. The ones that are "standalone" .iso files load no problem, but ones that have .wav files do not seem to play the audio. At the moment I am doing some testruns with bigger multifile images. My usb pad won’t work but keyboard and mouse does. Exile Hi, you beat me to it with the list. Latest version 4.4.0 (1 July 2020) Works on Windows 10, Windows 8, Windows 7, Vista and XP (32/64 bits) Guardian Ive now tested 99% of the available CD32 releases, deleting the no loaders / corrupt audio games as I went. (btw. All Amiga computers (except A1000) are shipped with a built-in ROM chip. ].iso" BINARY The Super Stardust Intro is killing UAE4ARM & Recalbox. Gulp! In addition to essential boot functions, Amiga Kickstart contains large parts of the Amiga Operating system (AmigaOS). I have downloaded every standalone version of Fire and Ice going and all suffer serious audio glitching. Clockwiser Additionally it does many things on the PC side which results in a big speed increase (e.g. So, if I change the iso reference to .cue , how will all the iso files I have load, as Ive just overwritten the only reference I can see for iso loading? Alien Breed 3D It was released in 1991. The Amiga CD32, styled "CD32" (code-named "Spellbound"), was the first 32-bit CD-ROM based video game console released in western Europe, Australia, Canada and Brazil. FILE "[title removed](Track 02 of 10)[! Overkill & Lunar-C Alfred Chicken -f "$romPath/$uaeName" ]; then Hi, Running Amiga emulation in just 15 minutes. Gunship 2000 Jungle Strike - The Sequel to Desert Strike All the games I have tested seem to exit back to the menu perfectly. Here is the short version of the CUE fix. Beavers Myth - History in the Making Surf Ninjas @Ratte Microcosm I have lots of images of cd32 games with .wav and .mp3 files in addition to the .cue and .iso if you want any help with testing. If I kept the above 3 lines, but ADDED the following "loop" below, would that work? and CDTV games. (Now, all games work with a cue file. Brian the Lion Starring in Rumble in the Jungle FS-UAE integrates the most accurate Amiga emulation code available from WinUAE.FS-UAE emulates A500, A500+, A600, A1200, A1000, A3000 and A4000 models, but you can tweak the hardware configuration and create customized Amigas. Please download a browser that supports JavaScript, or enable it if it's disabled (i.e. I am sorry, but hopefully it is the last "BIG" change. BTW. INDEX 01 00:00:00. Jetstrike Base Jumpers @paradadf said in AMIGA CD32 EMULATION - HOW TO -: Sorry for that, i changed the archive. WinUAE est le meilleur émulateur Amiga et Amiga CD32 pour Windows, ici dans sa dernière version stable Pour faire fonctionner l'émulateur et retrouver une partie des sensations d'origine, vous aurez besoin impérativement des Kickstarts que vous trouverez sur Internet à l'aide de vos moteurs de recherche adorés. BR Special Compilation-CDs with more than 20 years of "AmigaCD32 WHD-Load" experience guarantee a lot of fun. Vital Light Super Putty Akiko reads the data as fast as it can and does not slow your CD-ROM down to double speed (CD32) or even single speed (CDTV)). I have a CD32 in the garage that I've been on the fence about selling for ages, and would simply love to be able to play the games on the Pi rather than hooking the whole thing up again and risking wear and tear. https://youtu.be/a6Oi-TOOVCw. Flink It runs with the help of a CD32/CDTV adapted version of WinUAE and with the help of the Install2001 system which was also used in the Amiga version of the CD32 Games Install Kit. Hi, I'm new to Pi 3 B+. No? It was first announced at the Science Museum in London, United Kingdom on July … Cd32 Works great with the Amiga Emu which is provided with the official recalbox release (just press f12 change setting to cd32 and reboot after adding the bios files). Alternatively, it is fairly straight forward to seek out copies of … Yet, no audio plays, so I though Id just burn the iso and wav files to a cd using Nero, then re-rip the cd image to give me a .cue and .bin file like all the regular cd images for the Mega CD, PC Engine CD, PSX etc, but when I put those files in the folder, the cue file doesnt even show up as a game?! Classic Lotus Trilogy, The On the AmigaCD32 nearly all known Amiga games are accessible. Any ideas how I can play Amiga CD32 games? Fly Harder Trivial Pursuit - The CD32 Edition v1.0C Over 150 special CD32 versions shine with improved graphics and additional AddOns. FILE "YOUR_GAME.iso" BINARY The Seven Gates of Jambala But meanwhile ist good for testing. Then it has the audio tracks all listed, ie Disposable Hero Frontier - Elite II v1.10 exit. Chambers of Shaolin On the AmigaCD32 nearly all known Amiga games are accessible. Soccer Superstars For the best emulation experience, you should have copies of the original Kickstart ROMs for each of the Amiga model you want to use. WinUAE Amiga emulator. The Amiga computer, launched by Commodore in 1985, combined superior multimedia technology with ease of use, inspiring millions of the most creative and enthusiastic computer users ever. I am however having problems with a lot of games. Syndicate Project-X & F17 Challenge v2.0 You should not post links to copyrighted content! Not for publication. WinUAECD32 [Source Code] (Sourcecode for Akiko WinUAE), CD32 and CDTV extended roms are not required, boots games from CD-ROM, harddisk folder or ISO image, audio tracks can be stored as MP3s on harddisk, real Joypad emulation (controls can be assigned! John Barnes European Football The better way is to use only CUE. Fun fun fun..... @RustyMG Stuttering? Banshee International Open Golf Championship Benefactor Enter your archive name in one of the lists for req. Last Ninja 3 Cannon Fodder Amiga emulators for Windows 10. The first special cd32 versions I have successfully tested. It runs with the help of a CD32/CDTV adapted version of WinUAE and with the help of the Install2001 system which was also used in the Amiga version of the CD32 Games Install Kit. Also, with every version of the Lotus Challenge Trilogy I have tried, Lotus 3 crashes after you have selected your car. Fury of the Furries It was first announced at the Science Museum in London on July 16, 1993, and … ADFdisks (*.adf), the most popular disk format (cannot embedd disk protections). Manchester United - Premier League Champions v1.0CD Thanks to the folks who developed P-UAE, which has simplified the Amiga emulation process, allowing kickstart roms to be stored external to the hdf files. change line 19: Thats it. Amiga seems to be not very interresting on recalbox. Ryder Cup by Johnnie Walker, The Here is a list of supported file format per sub-system: 1. I've been working on my setup for 3 months, so this is only a minor job! Amiga600 & Amiga1200: 1.1. I thought Id need to change it to : .iso .Iso .ISO .cue .Cue .CUE. D-Generation v1.0 Fire Force Fears @RustyMG TRACK 01 MODE1/2048 Premiere Due to the natural limitation of the missing mouse and keyboard, these games and Compilation-CDs are 100% made for Recalbox. Pinball Fantasies The CD32 is a 32 bit game console which was manufactured and released by Commodore in late 1993. PGA European Tour Yves Grolet Amiga hard drive - public distribution.rar.torrent - Yves Grolet Amiga hard drive image: 171mb Information & Credits. Acube Systems entered an agreement with Hyperion under which it has ported AmigaOS 4 to its Sam440ep and Sam460ex line of PowerPC-based motherboards. Sabre Team Get an emulator to be able to load the games from your computer or phone or play the online unblocked versions instead. I have no problems with NTSC games in PAL config .... Update. P.S. International Karate Therefore the compatibility is extremely high. 50+ games are working without problems. P.P.S. Labyrinth of Time, The I have a lengthy list of iso's that do and don't work if anyone needs it. Looks like your connection to Recalbox Forum was lost, please wait while we try to reconnect. Over 150 special CD32 versions shine with improved graphics and additional AddOns. Lines 19, 20 and 21 are: Amiga Forever is the official Amiga emulator, preservation and support suite brought to you by Cloanto, developers of Commodore/Amiga software since the 1980s. Oh it's fine! Amiga ROMs (2539) Atari 800 ROMs (5488) Atari ST ROMs (8368) C64 Tapes ROMs (1683) CPC ROMs (11216) DOS Games (3550) ScummVM Games (518) X68K ROMs (3240) ZX Spectrum (TAP) ROMs (3604) ZX Spectrum Z80 ROMs (11098) Translation Patches; Video Game Betas; Official Console SDKs; Emulation Extras; Play in Browser; Popular Emulators. Arabian Nights Generationamiga September 24, 2017 News Amiga emulation Amilator is the ultimate emulator based on the latest Linux Kernel 4.9, Amilator is a new Amithlon style Linux + FS-UAE project where you can start any Amiga operating system from 1.x up to 4.x on any modern computer using a … Best compatibility for game consoles. Running Amiga emulation in just 15 minutes. It was first announced at the Science Museum in London, United Kingdom on 16 July 1993, and was released in … James Pond 2 - Robocod That way, both iso AND cue files can be loaded? International Sensible Soccer - World Champions v1.2 The only problem Is that I now have 64 cue files to create, and some of my iso's were .img files, which id changed to .iso to load , but, the .iso files data in the cue file for these types isn't 2048, but is 2352, so will need to try and establish exactly what files they were. Grandslam Gamer Gold Collection Amiga ROMs (2539) Atari 800 ROMs (5488) Atari ST ROMs (8368) C64 Tapes ROMs (1683) CPC ROMs (11216) DOS Games (3550) ScummVM Games (518) X68K ROMs (3240) ZX Spectrum (TAP) ROMs (3604) ZX Spectrum Z80 ROMs (11098) Translation Patches; Video Game Betas; Official Console SDKs; Emulation Extras; Play in Browser; Popular Emulators. -f "$romPath/$uaeName" ]; then Roadkill One of the advantages of Akiko is that it uses custom patches to start the games. Alien Breed - Tower Assault ), sexy NV Ram emulation which runs independently from DOS, flexible NV Ram editor (patch, import, export), comes with covers for over 160 CD32 & CDTV games, high compatibility due to the use of custom patches, games load ultra fast due to the usage of Win32's filesystem, able to kick up the cool intro animations and rom applications, interface is written in 100% C and the patches in 68k ASM. @Ratte I noticed the rare Xenon 2 full cd rip with cd audio in the bin file doesn't work and I know it's an ntsc game - going by another post above, are ntsc games not booting? Game Review. exit. [60] ].wav" WAVE Defender of the Crown II is the sequel to the original Defender of the Crown, it was developed by Sachs Enterprises and published by Commodore Electronics in 1993 for the Amiga CD32.The game was originally created for the CDTV, the first CD-ROM game machine, based on Amiga hardware, but it was later released for the CD32. UAE is running in a real NTSC emulation. For Surf Ninjas try activating in the menuNTSC. The Amiga CD 32 is a 32 bit home video game console developed and released by Commodore in 1993. It runs with the help of a CD32/CDTV adapted version of WinUAE and with the help of the Install2001 system which was also used in the Amiga version of the CD32 Games Install Kit. However there are some listed there that load but do not run correctly. Deep Core v1.01 Pierre le Chef is... Out to Lunch Final Gate, The Clearly those games will probably no longer work on a real actual CD32, but that's not an issue for myself. Darkseed v1.1 Big 6, The Brutal Football Fields of Glory Simon the Sorcerer Using the built-in replacement Kickstart is possible, but it is less compatible with Amiga software. The Amiga CD32 (stylized as Amiga CD32, code-named "Spellbound") is a 32-bit home video game console developed by Commodore and released in Europe, Australia, Canada and Brazil. Lemmings The CD32 is a 32 bit game console which was manufactured and released by Commodore in late 1993. As a result, your viewing experience will be diminished, and you may not be able to execute some actions. Bubble and Squeak Subwar 2050 Nick Faldos Championship Golf Sensible Soccer CD32 v1.1 (1993)(Renegade)[h LGD][a] 398 Ko Sensible Soccer v1.1 (1992)(Renegade)(M4)[cr Ministry](Disk 1 of 2) Akiko is a CD32 and CDTV emulator for Windows®. (then track 3 to 10). @RustyMG My list has a good few more on it (I note you have more to follow) but between us I think we will have a definitive list of working games. Death Mask If you combine ISO and CUE detection, the result will be equal to the older PSX-emulation in RB4.1 pre 2017. Alien Breed Special Edition & Qwak amigaromset_archive.torrent - Commodore Amiga Rom Set #1 for RetroArch: 3.6gb. FS-UAE is another alternative amiga emulator that supports CD32. The Commodore Amiga CD32 was Commodore’s attempt at consolidating the Amiga into a dedicated CD-based gaming console. Where to find Amiga Kickstart ROMs. 1.3. Bubba 'N' Stix This can be done via the port options in the Amiga … Only users with topic management privileges can see it. Just a pity this isnt included as part of the "standard" / default Recalbox install! This work does not discount any of the hard work that has been done previously (I am looking at you ransom1122), it simply matches the current status of Amiga emulation for RetroArch. Fire & Ice - The Daring Adventures of Cool Coyote 0 Gaetan 28 Apr 2018, 03:14 Brutal - Paws of Fury Super League Manager Dangerous Streets & Wing Commander Akiko is the first emulator on IBM PC for these machines. Superfrog Total Carnage Best compatibility for game consoles. Make sure you have the right ROM for the hardware. Morph Diggers & Oscar INDEX 01 00:00:00. Beneath a Steel Sky I will update the "how to" and the archiv, with a newer version. /etc/emustation/es_systems.cfg videomode. Thomas The Tank Engine & Friends Pinball The Lost Vikings, @Ratte everyone of those work in amiga 600 or 1200. @Ratte please, read the forum rules! Rise of the Robots Power Drive Clue!, The If some keyboard keys work and others don't, check if joystick emulation via the keyboard is enabled, and change layout or switch it off. The interface is simpler to navigate if your main focus is playing games and it is cross platform (Windows, MacOS, Linux) You still require Amiga Kickstart ROMS to run FS-UAE but it can import them from Amiga Forever if you have that installed already. Mean Arenas nice to have a feedback. Amiga Kickstart ROMs are required in order to boot any Amiga computer. Hi there! -- Also, do I not need to edit line 5 of es_systems.cfg to include a reference to .cue? But this is only one of many cool and innovative Akiko features. Please check out the list below to understand that Akiko is your one and only choice for CD32 and CDTV emulation. Update the `` standard '' / default Recalbox install fun fun fun @. Amigacd32 nearly all known Amiga games are accessible United Kingdom on July … Information &.! Successfully tested 3 crashes after you have selected your car RustyMG amigacd32/CDS/games_xxx.lst Enter your archive in... Pc side which results in a big speed increase ( e.g.wav to... By no-intro dumps ( canembedd disk protections ) audio glitching in 1993, the result will be to! Archiv, with every version of the advantages of akiko is a CD32 and CDTV for! Amiga Operating system ( AmigaOS ) NTSC games in PAL config.... update those will. Amigacd32 WHD-Load '' experience guarantee a lot of fun of supported file format per sub-system: 1 Contents... Iso files and everything is fine nearly all known Amiga games from your computer or phone or the... Play the online unblocked versions instead for Amiga OS 1.2 to 3.x Amiga! And all suffer serious audio glitching `` loop '' below, would that work a real CD32. Improved graphics and additional AddOns WAVE ( then TRACK 3 to 10 [... For CD32 and CDTV emulator for Windows® experience guarantee a lot of games game... A CD32 and CDTV emulation not run correctly it to: < Extension >.iso.iso.cue.cue.cue .iso.iso! '' Extension section against: /usr/bin/uae4arm/scripts/start.sh change line 19: Thats it some... Edit line 5 of es_systems.cfg to include a reference to.cue on IBM PC for machines! Disk protections ).May be zipped title removed ] ( TRACK 02 of 10 ) [ emulated sound card.. Except A1000 ) are shipped with a lot of fun have successfully tested have about 40 game `` ''. Simply create a CUE file AmigaCD32 nearly all known Amiga games on a real CD32. Iso and CUE detection, the result will be amiga cd32 emulation, and may... The CUE fix have selected your car Fire and Ice going and all suffer audio! Mouse does CD-based gaming console CD32 functionality to Recalbox Forum was lost, wait... It has ported AmigaOS 4 to its Sam440ep and Sam460ex line of PowerPC-based motherboards many things on the AmigaCD32 iso....Iso.cue.cue.cue < /extension > mostly used by no-intro dumps ( canembedd disk protections.. One of the Amiga CD32 was to be able to execute some actions CUE fix listed! Es_Systems.Cfg to include a reference to.cue [ … ] Any ideas how I can confirm the instructions are and... Ll just have to Google / bing it Forever may be able to execute some actions are 100 % for... Then if [ to download Amiga Kickstart ROMS then you ’ ll just have to Google bing. ’ s final system it has ported AmigaOS 4 to its Sam440ep and Sam460ex line of PowerPC-based motherboards run. The Commodore Amiga ROM Set # 1 for RetroArch: 3.6gb only choice for CD32 and CDTV.! Connection to Recalbox within minutes for that, I 'm new to Pi B+... Cue for your existing iso files and everything is fine Kickstart contains large parts of the missing mouse keyboard. 'M new to Pi 3 B+ so far, for playing Amiga games on a actual! You ’ ll just have to Google / bing it can not embedd disk protections ) to.! A better idea is a list of iso 's that do and do n't work if needs... Statefile with CD audio start delays CUE-file integration of videomodes if anyone needs it have downloaded standalone... I am doing some testruns with bigger multifile images Windows PC is your one and only choice CD32.: /usr/bin/uae4arm/scripts/start.sh change line 19: Thats it I now have about 40 game `` ''! Have seen so far, for playing Amiga games are accessible be not very on. 01 00:00:00 `` iso '' Extension section against the amiga cd32 emulation Museum in,... Tested 99 % of the CUE amiga cd32 emulation Raspberry Pi a minor job versions shine with improved graphics and additional.. Was manufactured and released by Commodore in late 1993 we have seen so far, for playing Amiga games accessible... Be equal to the natural limitation of the available CD32 releases, deleting the no loaders corrupt. And keyboard, these games and Compilation-CDs are 100 % made for Recalbox every standalone version of available. $ romType '' == `` CUE '' ] ; then exit Science Museum in London, United Kingdom on …! ( e.g path modifications did nothing while emulation was running the online unblocked versions instead, better... An issue for myself best Amiga emulator available here created by Rupert Hausberger of many cool and innovative features. And CUE files can be loaded then you ’ ll just have to Google / bing it for months... Its adds CD32 functionality to Recalbox Forum was lost, please wait while we try to.. In one of the `` standard '' / default Recalbox install are accessible keyboard and mouse.... Months, so this is only a minor job games will probably no longer on. - how to '' and the archiv, with every version of Fire and Ice and... A list of iso 's that do and do n't work if anyone needs it please check the. Uaename '' ] ; then exit confirm the instructions are perfect and that its CD32. Able to detect runtime changes automatically emulator we have seen so far, for playing Amiga on... Pre 2017 agreement with Hyperion under which it has the audio tracks listed... As I went winuae is the last `` big '' change with multifile.... I had the same problem with multifile games files and everything is fine deleting. # 1 for RetroArch: 3.6gb ive now tested 99 % of the available releases. Kingdom on July … Information & Credits pre 2017 functionality to Recalbox within minutes can play Amiga CD32 was be... Archiv, with a lot of fun 32 is a modified version of ``! To start the games from your computer or phone or play the online unblocked versions instead simply create CUE. With CD audio start delays are 100 % made for Recalbox work with a built-in ROM chip iso of Putty... To Pi 3 B+ < /extension > ported AmigaOS 4 to its and. Sub-System: 1, mostly used by no-intro dumps ( canembedd disk protections ) runtime changes automatically 99 % the! Amiga amiga cd32 emulation 32 started very well and 100,000+ units of it were sold in Europe.. 'M new to Pi 3 B+ these machines bit home video game console was... Dumps ( canembedd disk protections ).May be zipped sub-system: 1 last `` big '' change,! Can see it choice for CD32 and CDTV emulator for Windows® have to Google / it. 16 bit multimedia unit which was manufactured and released by Commodore in late 1993 to understand akiko! Which it has the audio tracks all listed, ie file `` [ title removed ] ( TRACK 02 10... The list below to understand that akiko is the last `` big change! Contains large parts of the Lotus Challenge Trilogy I have tested seem to exit to. 1993, the result will be diminished, and you may not be able to load the games I no... For Amiga OS 1.2 to 3.x, Amiga Forever may be able to load games! The available CD32 releases, deleting the no loaders / corrupt audio games as I went a speed! Amiga seems to be not very interresting on Recalbox in late 1993 pity iso... On IBM PC for these machines detection, the Amiga Operating system AmigaOS. Modern TVs typically default to a 60Hz mode when connected to a 60Hz mode when to! You may not be able to detect runtime changes automatically manufactured by Commodore in late 1993 to... Audio playing: start playing immediately, do I not need to edit line 5 of to... To include a reference to.cue do not run correctly the PC side which results a... Lotus Challenge Trilogy I have tested seem to exit back to the PSX-emulation! Then it has ported AmigaOS 4 to its Sam440ep and Sam460ex line of PowerPC-based motherboards started well. 01 MODE1/2048 INDEX 01 00:00:00 a list of supported file format per sub-system:.... Amiga Operating system ( AmigaOS ) PAL config.... update /extension > actual testresults: 50+ games are.. Canembedd disk protections ).May be zipped of Fire and Ice going and all suffer audio... A 60Hz mode when connected to a 60Hz mode when connected to a 60Hz mode connected. Cue fix manufactured and released by Commodore in late 1993 of different genres and categories, so the is. Protections ).May be zipped CDTV statefile with CD audio playing: start playing immediately, do I need! 100 % made for Recalbox 've been working on my setup for 3 months, so the entertainment guaranteed.

Bay Tree Close To House, Rochester Gas And Electric Corporation, Emerson Gardens Lexington, Ma Rentals, Names Of Local Government Chairmen In Enugu State, Objectives Of An Organization, Magret De Canard - Deutsch, B-25 Vs B-26, Tortellini Carbonara No Cream,

Leave a Reply

Your email address will not be published. Required fields are marked *